<?xml version="1.0" standalone="no"?>
<!DOCTYPE svg PUBLIC "-//W3C//DTD SVG 1.1//EN" "http://www.w3.org/Graphics/SVG/1.1/DTD/svg11.dtd">
<svg xmlns="http://www.w3.org/2000/svg">
<defs >
<font id="TitilliumWeb" horiz-adv-x="490" ><font-face
    font-family="Titillium Web Light"
    units-per-em="1000"
    panose-1="0 0 4 0 0 0 0 0 0 0"
    ascent="1133"
    descent="-388"
    alphabetic="0" />
<glyph unicode=" " glyph-name="space" horiz-adv-x="220" />
<glyph unicode="!" glyph-name="exclam" horiz-adv-x="239" d="M87 0V100H153V0H87ZM91 223L88 695H151L147 223H91Z" />
<glyph unicode="&quot;" glyph-name="quotedbl" horiz-adv-x="364" d="M291 477H236L233 695H295L291 477ZM127 477H73L69 695H131L127 477Z" />
<glyph unicode="#" glyph-name="numbersign" horiz-adv-x="560" d="M533 180H419V0H363V180H196V0H140V180H26V232H140V433H26V485H140V667H196V485H363V667H419V485H533V433H419V232H533V180ZM363 232V433H196V232H363Z" />
<glyph unicode="$" glyph-name="dollar" horiz-adv-x="560" d="M490 193Q490 87 438 40T283 -8H266L251 -123Q206 -120 206 -116L220 -5L77 10L84 61Q161 51 227 47L262 315Q211 325 180 336T122 368Q72 405 72 497Q72 670 281 670Q298 670 308 669L324 795H369L352
666L475 652L471 601Q403 609 345 614L313 363Q408 343 449 308T490 193ZM132 501Q132 438 161 413T269 372L301 617H285Q132 617 132 501ZM281 45Q430 45 430 178Q430 243 403 267T306 306L273 45H281Z" />
<glyph unicode="%" glyph-name="percent" horiz-adv-x="560" d="M162 -3L360 676L402 663L204 -15L162 -3ZM32 670T139 670T246 533Q246 463 218 428T139 393T61 428T32 534Q32 670 139 670ZM83 534Q83 437 139 437Q170 437 183 460T196 532T183 603T140 626T96
604T83 534ZM314 131Q314 267 421 267T529 130Q529 60 500 25T421 -10T343 25T314 131ZM365 131Q365 34 421 34T478 130Q478 178 465 200T422 223T378 201T365 131Z" />
<glyph unicode="&amp;" glyph-name="ampersand" horiz-adv-x="685" d="M147 619T190 658T315 698T437 659T479 549T443 439T321 362L485 199Q495 225 504 278T516 370L575 369Q562 239 530 160L663 33L626 -8L501 111Q434 -10 284 -10Q153 -10 99 44T44 196T80
336T202 406Q168 445 158 475T147 553Q147 619 190 658ZM281 45Q408 45 459 148L238 367Q164 346 134 311T104 202Q104 45 281 45ZM207 545Q207 476 252 431L283 399Q359 429 388 459T418 546Q418 646 313 646T207 545Z" />
<glyph unicode="&apos;" glyph-name="quotesingle" horiz-adv-x="200" d="M72 477L69 695H132L126 477H72Z" />
<glyph unicode="(" glyph-name="parenleft" horiz-adv-x="252" d="M118 386T118 302T142 111T190 -60L213 -125H155Q144 -101 127 -59T82 95T54 284T64 428T90 550Q119 660 144 724L155 750H213Q179 659 149 523Z" />
<glyph unicode=")" glyph-name="parenright" horiz-adv-x="252" d="M199 394T199 301T174 102T123 -65L98 -125H40Q75 -39 105 89T135 301T112 498T64 680L40 750H98Q109 723 126 678T171 513Z" />
<glyph unicode="*" glyph-name="asterisk" horiz-adv-x="419" d="M369 514H235L276 387L234 374L192 502L84 423L58 458L167 537L59 616L86 652L194 573L235 700L278 686L237 558H369V514Z" />
<glyph unicode="+" glyph-name="plus" horiz-adv-x="560" d="M57 223V279H250V480H307V279H503V223H307V20H250V223H57Z" />
<glyph unicode="," glyph-name="comma" horiz-adv-x="213" d="M38 -123L82 99H149L88 -123H38Z" />
<glyph unicode="-" glyph-name="hyphen" horiz-adv-x="445" d="M71 249V305H375V249H71Z" />
<glyph unicode="." glyph-name="period" horiz-adv-x="206" d="M70 0V101H136V0H70Z" />
<glyph unicode="/" glyph-name="slash" horiz-adv-x="398" d="M32 11L312 706L366 685L87 -9L32 11Z" />
<glyph unicode="0" glyph-name="zero" horiz-adv-x="560" d="M101 611T150 640T269 670T381 654T454 598Q516 522 516 330T457 64T279 -10T102 62T43 318Q43 453 72 532ZM377 590Q341 615 280 615T182 591Q107 540 107 317Q107 162 149 104T280 46Q338 46 374
68Q452 116 452 318Q452 538 377 590Z" />
<glyph unicode="1" glyph-name="one" horiz-adv-x="560" d="M381 660V0H320V592L144 474L115 522L323 660H381Z" />
<glyph unicode="2" glyph-name="two" horiz-adv-x="560" d="M491 0H70V52L276 270Q326 323 348 349T389 414T408 491Q408 558 371 586T255 614Q189 614 108 596L81 590L76 643Q170 670 269 670T420 629T472 496Q472 427 441 376T337 252L145 54H491V0Z" />
<glyph unicode="3" glyph-name="three" horiz-adv-x="560" d="M75 645Q169 670 274 670T427 630T475 501Q475 402 383 356L371 350Q432 331 462 297T492 186Q492 87 441 39T280 -10Q186 -10 94 10L64 16L70 68Q177 46 275 46Q428 46 428 183Q428 311 283 318H149V372H282Q327
372 369 407T411 502T379 588T267 615T106 599L81 594L75 645Z" />
<glyph unicode="4" glyph-name="four" horiz-adv-x="560" d="M370 0V134H40V182L234 660H302L107 189H370V400H432V189H521V134H432V0H370Z" />
<glyph unicode="5" glyph-name="five" horiz-adv-x="560" d="M473 660V603H146L128 370Q208 414 292 414Q502 414 502 220Q502 108 444 50T282 -8Q197 -8 98 12L66 19L74 70Q187 47 269 47T394 91T438 214T398 326T286 359Q248 359 207 348T144 324L121 313L75
321L94 660H473Z" />
<glyph unicode="6" glyph-name="six" horiz-adv-x="560" d="M478 604Q391 614 304 614T167 551T118 368L144 378Q229 410 293 410Q513 410 513 208Q513 104 454 47T285 -10Q54 -10 54 334Q54 506 120 588T307 670Q375 670 458 658L484 655L478 604ZM289 355Q253
355 210 345T142 323L117 312Q120 46 285 46Q365 46 407 87T449 206Q449 355 289 355Z" />
<glyph unicode="7" glyph-name="seven" horiz-adv-x="560" d="M79 604V660H486V572L227 -10L168 10L423 578V604H79Z" />
<glyph unicode="8" glyph-name="eight" horiz-adv-x="560" d="M167 670T278 670T452 628T516 501Q516 439 488 405T396 346Q460 322 493 285T526 179Q526 -10 278 -10Q168 -10 100 31T32 168Q32 241 62 278T154 346Q97 372 70 406T43 502Q43 586 105 628ZM278
47Q364 47 412 77T461 176T428 271T329 316H219Q159 300 129 268T99 177Q99 47 278 47ZM450 495Q450 614 280 614T109 496Q109 446 135 418T219 370H329Q390 387 420 416T450 495Z" />
<glyph unicode="9" glyph-name="nine" horiz-adv-x="560" d="M76 57Q163 46 254 46Q439 46 441 292L412 282Q321 252 258 252Q44 252 44 451Q44 551 105 610T270 670Q389 670 447 580T505 316T440 67T247 -10Q172 -10 96 2L70 6L76 57ZM262 307Q294 307 339 317T413
337L442 347Q437 614 270 614Q195 614 152 570T108 451Q108 307 262 307Z" />
<glyph unicode=":" glyph-name="colon" horiz-adv-x="207" d="M70 330V432H136V330H70ZM70 0V101H136V0H70Z" />
<glyph unicode=";" glyph-name="semicolon" horiz-adv-x="241" d="M96 99H165L103 -123H53L96 99ZM92 330V432H158V330H92Z" />
<glyph unicode="&lt;" glyph-name="less" horiz-adv-x="560" d="M479 423L120 252L479 78V14L59 224V278L479 486V423Z" />
<glyph unicode="=" glyph-name="equal" horiz-adv-x="560" d="M65 312V368H494V312H65ZM65 133V189H494V133H65Z" />
<glyph unicode="&gt;" glyph-name="greater" horiz-adv-x="560" d="M439 252L80 423V486L500 278V224L80 14V78L439 252Z" />
<glyph unicode="?" glyph-name="question" horiz-adv-x="449" d="M406 545Q406 482 388 449T316 369T240 295T218 233V197H166Q157 222 157 254T181 319T258 396T328 469T345 548T310 625T200 650Q150 650 72 632L44 625L38 676Q144 705 205 705Q306 705 356 668T406
545ZM158 1V101H224V1H158Z" />
<glyph unicode="@" glyph-name="at" horiz-adv-x="977" d="M930 305V290Q930 69 864 20Q840 2 817 -3T763 -8T710 -2T676 14Q653 33 646 54Q605 30 553 12T469 -7T417 -3T372 16T330 58Q292 119 292 249T337 443T497 507Q546 507 600 487L619 480V497H679V302Q679
123 692 84Q696 70 706 59T728 45T762 43T798 46T827 63T850 103Q868 167 868 290V306Q868 497 784 582T502 668T210 573T116 256T206 -57T504 -148L647 -138L650 -192Q554 -202 504 -202Q388 -202 308 -180T169 -106Q54 -5 54 249T166 612T503 721T829 620T930
305ZM629 98Q625 114 622 180T619 287V430Q554 453 505 453Q416 453 384 403T352 243Q352 120 390 80Q423 47 475 47T629 98Z" />
<glyph unicode="A" glyph-name="A" horiz-adv-x="594" d="M25 0L225 695H370L569 0H508L452 192H142L87 0H25ZM270 641L157 247H437L324 641H270Z" />
<glyph unicode="B" glyph-name="B" horiz-adv-x="617" d="M87 695H334Q539 695 539 520Q539 397 447 358Q562 322 562 193Q562 88 508 44T349 0H87V695ZM342 327H149V55H348Q421 55 460 86T499 195Q499 327 342 327ZM332 640H149V381H341Q411 381 443 414T476
514T441 610T332 640Z" />
<glyph unicode="C" glyph-name="C" horiz-adv-x="544" d="M502 11Q399 -10 326 -10T209 5T136 49T92 122Q62 204 62 345Q62 571 134 644Q193 705 314 705Q397 705 502 684L499 630Q395 649 332 649T235 636T179 600T146 537Q126 469 126 367T133 215T160 123T219
64T327 46T499 65L502 11Z" />
<glyph unicode="D" glyph-name="D" horiz-adv-x="646" d="M340 0H87V695H340Q587 695 587 357Q587 0 340 0ZM523 357Q523 639 340 639H149V55H340Q523 55 523 357Z" />
<glyph unicode="E" glyph-name="E" horiz-adv-x="552" d="M87 0V695H504V639H149V381H444V326H149V55H504V0H87Z" />
<glyph unicode="F" glyph-name="F" horiz-adv-x="525" d="M87 0V695H497V639H149V352H445V297H149V0H87Z" />
<glyph unicode="G" glyph-name="G" horiz-adv-x="617" d="M360 296V351H549V15Q520 9 447 0T326 -10Q176 -10 118 78T60 345Q60 434 72 497T114 609Q171 705 325 705Q419 705 516 686L549 679L546 626Q421 649 330 649Q209 649 167 577T124 346T166 117T329 46Q400
46 488 62V296H360Z" />
<glyph unicode="H" glyph-name="H" horiz-adv-x="675" d="M526 0V321H149V0H87V695H149V376H526V695H587V0H526Z" />
<glyph unicode="I" glyph-name="I" horiz-adv-x="236" d="M87 0V695H149V0H87Z" />
<glyph unicode="J" glyph-name="J" horiz-adv-x="285" d="M201 695V89Q201 33 192 1T157 -48T102 -68T18 -72V-17Q61 -17 80 -15T115 0T136 35T140 102V695H201Z" />
<glyph unicode="K" glyph-name="K" horiz-adv-x="563" d="M149 0H87V695H149V367L269 370L462 695H533L323 346L546 0H472L270 314L149 312V0Z" />
<glyph unicode="L" glyph-name="L" horiz-adv-x="480" d="M467 0H87V695H149V56H467V0Z" />
<glyph unicode="M" glyph-name="M" horiz-adv-x="835" d="M87 0V695H203L418 87L632 695H748V0H686V631H672L454 23H381L163 631H149V0H87Z" />
<glyph unicode="N" glyph-name="N" horiz-adv-x="672" d="M87 0V695H209L500 55H523V695H584V0H464L171 639H149V0H87Z" />
<glyph unicode="O" glyph-name="O" horiz-adv-x="662" d="M124 185T166 116T331 46T497 114T539 341T495 575T331 649Q207 649 164 569Q141 528 133 475T124 344Q124 185 166 116ZM603 156T545 73T332 -10T119 75T60 343T119 616T331 705T543 617T603 342Z" />
<glyph unicode="P" glyph-name="P" horiz-adv-x="593" d="M341 242H149V0H87V695H341Q452 695 504 641T557 475Q557 242 341 242ZM149 297H341Q493 297 493 475Q493 560 457 600T341 640H149V297Z" />
<glyph unicode="Q" glyph-name="Q" horiz-adv-x="662" d="M331 -10Q177 -10 119 75T60 343T119 616T331 705T543 617T603 344Q603 213 577 136T486 23L571 -115L512 -143L425 1Q386 -10 331 -10ZM124 185T166 116T331 46T497 113T539 341T495 575T331 649Q207
649 164 569Q141 528 133 475T124 344Q124 185 166 116Z" />
<glyph unicode="R" glyph-name="R" horiz-adv-x="615" d="M149 274V0H87V695H342Q451 695 504 646T558 489Q558 322 424 286L567 0H498L361 274H149ZM494 488Q494 566 457 603T342 640H149V329H342Q494 329 494 488Z" />
<glyph unicode="S" glyph-name="S" horiz-adv-x="541" d="M275 651Q114 651 114 528Q114 456 150 431T293 385T445 327T491 203Q491 91 436 42T273 -8Q195 -8 92 6L56 11L63 64Q200 47 275 47T389 83T428 190T394 286T284 326T173 351T108 384T64 439T51 524Q51
706 271 706Q337 706 443 692L476 687L471 634Q333 651 275 651Z" />
<glyph unicode="T" glyph-name="T" horiz-adv-x="526" d="M13 639V695H513V639H295V0H233V639H13Z" />
<glyph unicode="U" glyph-name="U" horiz-adv-x="642" d="M144 204Q144 46 317 46Q407 46 452 83T497 204V695H559V204Q559 91 498 41T320 -10T143 40T83 204V695H144V204Z" />
<glyph unicode="V" glyph-name="V" horiz-adv-x="577" d="M487 695H550L364 0H213L26 695H90L259 55H318L487 695Z" />
<glyph unicode="W" glyph-name="W" horiz-adv-x="874" d="M33 695H96L222 55H255L401 687H474L619 55H652L778 695H841L698 0H574L437 610L300 0H176L33 695Z" />
<glyph unicode="X" glyph-name="X" horiz-adv-x="555" d="M91 695L279 388L466 695H534L318 343L534 0H464L278 300L89 0H21L239 342L21 695H91Z" />
<glyph unicode="Y" glyph-name="Y" horiz-adv-x="534" d="M298 0H236V294L13 695H82L267 358L451 695H521L298 294V0Z" />
<glyph unicode="Z" glyph-name="Z" horiz-adv-x="537" d="M43 639V695H493V612L112 76V55H493V-1H43V81L424 617V639H43Z" />
<glyph unicode="[" glyph-name="bracketleft" horiz-adv-x="322" d="M281 749V695H142V-69H281V-123H81V749H281Z" />
<glyph unicode="\" glyph-name="backslash" horiz-adv-x="421" d="M390 14L335 -9L30 681L84 705L390 14Z" />
<glyph unicode="]" glyph-name="bracketright" horiz-adv-x="322" d="M41 695V749H241V-123H41V-69H180V695H41Z" />
<glyph unicode="^" glyph-name="asciicircum" horiz-adv-x="560" d="M431 320L278 600L132 320H67L250 660H306L496 320H431Z" />
<glyph unicode="_" glyph-name="underscore" horiz-adv-x="635" d="M103 -96H531V-150H103V-96Z" />
<glyph unicode="`" glyph-name="grave" horiz-adv-x="228" d="M25 737L232 640L213 598L3 685L25 737Z" />
<glyph unicode="a" glyph-name="a" horiz-adv-x="499" d="M419 351V83Q423 46 484 39L481 -9Q404 -9 368 31Q274 -10 180 -10Q113 -10 78 28T43 138T78 244T190 287L360 304V351Q360 407 336 431T270 456Q206 456 104 444L73 441L70 489Q180 510 262 510T382 471T419
351ZM105 142Q105 41 188 41Q224 41 267 49T335 67L360 76V257L197 240Q148 236 127 212T105 142Z" />
<glyph unicode="b" glyph-name="b" horiz-adv-x="521" d="M290 510Q390 510 429 452T468 252T419 50T234 -10Q178 -10 100 -2L74 0V722H134V473Q212 510 290 510ZM134 50Q204 44 246 44T323 56T375 96T400 161T406 258Q406 364 381 410T285 456Q251 456 213 448T154
430L134 422V50Z" />
<glyph unicode="c" glyph-name="c" horiz-adv-x="433" d="M261 510Q306 510 368 500L391 497L388 446Q309 456 271 456Q182 456 149 413T116 253T146 90T271 44L390 53L392 2Q303 -10 260 -10Q141 -10 98 49T54 252T101 453T261 510Z" />
<glyph unicode="d" glyph-name="d" horiz-adv-x="523" d="M449 722V0H389V37Q310 -10 229 -10Q192 -10 165 -2T110 32Q53 83 53 231T101 445T263 510Q307 510 389 497V722H449ZM173 58T191 51T239 44T307 55T368 76L389 87V445Q309 457 265 457Q180 457 148 405T115
244Q115 116 154 77Q173 58 191 51Z" />
<glyph unicode="e" glyph-name="e" horiz-adv-x="504" d="M406 50L436 53L438 4Q325 -10 247 -10Q139 -9 96 54T53 248Q53 510 259 510Q358 510 407 454T456 273L454 225H114Q114 133 145 89T253 44T406 50ZM114 275H396Q396 374 364 416T260 458T151 415T114 275Z" />
<glyph unicode="f" glyph-name="f" horiz-adv-x="324" d="M155 447V0H95V447H30V500H95V551Q95 657 124 694T227 732L324 727V676Q265 678 236 678Q189 678 172 652T155 550V500H306V447H155Z" />
<glyph unicode="g" glyph-name="g" horiz-adv-x="509" d="M480 -161T426 -199T256 -237T97 -204T53 -83Q53 -41 71 -16T134 43Q109 59 109 111Q109 127 133 174L141 189Q59 223 59 340Q59 510 240 510Q291 510 330 500L345 497L490 500V447L390 449Q426 413 426
331T381 211T237 173Q208 173 186 177Q166 128 166 115Q166 82 185 75T302 67T439 38T480 -76ZM113 -79Q113 -139 143 -162T259 -185T382 -161T419 -79T392 -4T289 13L176 17Q139 -9 126 -28T113 -79ZM120 276T148 250T242 223T337 249T365 340T337 433T243 460T148
433T120 341Z" />
<glyph unicode="h" glyph-name="h" horiz-adv-x="533" d="M134 0H75V722H134V471Q218 510 296 510Q396 510 429 457T463 263V0H403V260Q403 375 382 415T288 456Q253 456 215 448T155 430L134 422V0Z" />
<glyph unicode="i" glyph-name="i" horiz-adv-x="209" d="M75 0V500H134V0H75ZM75 625V700H134V625H75Z" />
<glyph unicode="j" glyph-name="j" horiz-adv-x="209" d="M75 10V500H135V9Q135 -79 103 -125T-29 -221L-53 -173Q28 -127 51 -95T75 10ZM75 625V700H135V625H75Z" />
<glyph unicode="k" glyph-name="k" horiz-adv-x="470" d="M134 0H75V722H134V292L219 294L373 500H442L271 271L450 0H380L220 241L134 239V0Z" />
<glyph unicode="l" glyph-name="l" horiz-adv-x="221" d="M81 0V722H140V0H81Z" />
<glyph unicode="m" glyph-name="m" horiz-adv-x="835" d="M134 0H75V500H134V463Q210 510 296 510T418 457Q454 479 505 494T598 510Q698 510 731 458T765 263V0H706V260Q706 375 685 415T591 456Q555 456 517 446T459 424L439 414Q454 376 454 260V0H394V258Q394
375 373 415T280 456Q245 456 209 446T153 424L134 414V0Z" />
<glyph unicode="n" glyph-name="n" horiz-adv-x="533" d="M134 0H75V500H134V463Q218 510 297 510Q397 510 430 457T464 263V0H404V260Q404 375 382 415T288 456Q253 456 215 446T155 424L134 414V0Z" />
<glyph unicode="o" glyph-name="o" horiz-adv-x="527" d="M54 392T101 451T263 510T425 451T473 251T430 50T264 -10T98 50T54 251ZM116 134T143 89T263 43T384 89T412 252T381 413T264 457T148 414T116 253Z" />
<glyph unicode="p" glyph-name="p" horiz-adv-x="523" d="M75 -225V500H134V462Q212 510 298 510T427 449T470 251T420 52T254 -10Q192 -10 134 3V-225H75ZM286 456Q253 456 215 445T156 422L134 411V55Q202 43 252 43Q338 43 373 91T408 251T378 409T286 456Z" />
<glyph unicode="q" glyph-name="q" horiz-adv-x="521" d="M238 -10Q138 -10 96 50T53 249T104 449T286 510L446 500V-225H387V25Q316 -10 238 -10ZM287 457Q186 457 150 408T114 249T143 92T243 44Q277 44 313 52T368 68L387 77V451Q319 457 287 457Z" />
<glyph unicode="r" glyph-name="r" horiz-adv-x="339" d="M75 0V500H134V428Q171 454 224 478T323 510V450Q280 441 233 423T160 390L134 375V0H75Z" />
<glyph unicode="s" glyph-name="s" horiz-adv-x="464" d="M226 455Q108 455 108 370Q108 331 134 315T251 284T380 241T418 138T369 26T225 -10Q170 -10 83 4L54 8L58 61Q170 44 230 44T323 65T357 136T330 202T212 233T84 273T47 371T98 476T224 509Q284 509
374 496L401 492L399 439Q292 455 226 455Z" />
<glyph unicode="t" glyph-name="t" horiz-adv-x="347" d="M328 447H161V200Q161 103 175 73T241 43L333 50L337 -1Q271 -11 236 -11Q160 -11 131 26T101 170V447H27V500H101V657H161V500H328V447Z" />
<glyph unicode="u" glyph-name="u" horiz-adv-x="525" d="M391 500H450V0H391V37Q314 -10 237 -10Q135 -10 103 42T70 239V500H129V240Q129 124 150 84T244 44Q279 44 316 54T372 76L391 86V500Z" />
<glyph unicode="v" glyph-name="v" horiz-adv-x="477" d="M27 500H93L218 52H258L388 500H450L304 0H173L27 500Z" />
<glyph unicode="w" glyph-name="w" horiz-adv-x="760" d="M33 500H94L204 52H218L348 490H411L541 52H556L666 500H727L602 0H498L380 412L261 0H158L33 500Z" />
<glyph unicode="x" glyph-name="x" horiz-adv-x="446" d="M24 500H91L223 294L355 500H422L259 251L421 0H355L223 205L91 0H24L185 250L24 500Z" />
<glyph unicode="y" glyph-name="y" horiz-adv-x="478" d="M27 500H88L221 52H257L391 500H452L236 -225H176L243 0H174L27 500Z" />
<glyph unicode="z" glyph-name="z" horiz-adv-x="455" d="M42 446V500H413V446L116 54H413V0H42V54L339 446H42Z" />
<glyph unicode="{" glyph-name="braceleft" horiz-adv-x="350" d="M183 574L190 453Q190 389 169 360T87 312Q147 294 169 264T191 170L184 53Q184 -9 210 -39T309 -74L307 -127Q208 -123 167 -82T125 49L132 172Q132 216 108 243T26 286V336Q83 349 107 376T132
449L125 577Q125 668 167 708T308 753L309 701Q237 697 210 667T183 574Z" />
<glyph unicode="|" glyph-name="bar" horiz-adv-x="221" d="M80 -225V722H140V-225H80Z" />
<glyph unicode="}" glyph-name="braceright" horiz-adv-x="350" d="M166 53L159 170Q159 233 181 263T263 312Q203 330 182 359T160 453L167 574Q167 636 140 666T41 701L42 753Q141 749 183 709T225 577L218 449Q218 403 242 376T324 336V286Q267 270 243 243T218
172L225 49Q225 -41 184 -82T43 -127L41 -74Q113 -70 139 -40T166 53Z" />
<glyph unicode="~" glyph-name="asciitilde" horiz-adv-x="560" d="M382 201Q352 201 277 234T184 267Q150 267 96 230L79 218L68 269Q131 323 183 323Q212 323 286 290T380 257Q414 257 466 293L484 305L494 255Q434 201 382 201Z" />
<glyph unicode="&#xa0;" glyph-name="uni00A0" horiz-adv-x="220" />
<glyph unicode="&#xa1;" glyph-name="exclamdown" horiz-adv-x="219" d="M141 500V400H75V500H141ZM137 277L140 -195H77L81 277H137Z" />
<glyph unicode="&#xa2;" glyph-name="cent" horiz-adv-x="560" d="M280 -83V38Q186 42 145 87T104 245T146 408T280 463V586H333V461Q372 461 423 452L440 449L438 399Q358 408 305 408Q229 408 199 372T168 247T198 126T313 93L439 100L442 49Q376 41 334 39V-83H280Z" />
<glyph unicode="&#xa3;" glyph-name="sterling" horiz-adv-x="560" d="M440 604Q358 615 311 615T246 585T228 462V413H402V360H228V54H389L468 70L478 18L397 0H81V54H168V360H101V413H168V466Q168 587 200 628T313 669Q360 669 420 658L441 654L440 604Z" />
<glyph unicode="&#xa4;" glyph-name="currency" horiz-adv-x="560" d="M382 107Q336 75 280 75T177 107L108 37L65 80L135 149Q103 195 103 251T135 354L65 424L108 467L177 396Q225 429 279 429T382 396L452 467L495 424L424 354Q457 306 457 252T424 149L495
80L452 37L382 107ZM230 130T280 130T366 166T402 252T366 338T280 374T194 338T158 252T194 166Z" />
<glyph unicode="&#xa5;" glyph-name="yen" horiz-adv-x="560" d="M57 321V374H208L27 660H96L281 375L463 660H533L354 374H502V321H322L312 301V223H503V170H312V0H250V170H58V223H250V301L241 321H57Z" />
<glyph unicode="&#xa6;" glyph-name="brokenbar" horiz-adv-x="225" d="M82 722H142V347H82V722ZM82 152H142V-225H82V152Z" />
<glyph unicode="&#xa7;" glyph-name="section" horiz-adv-x="494" d="M68 501Q68 654 254 654Q304 654 389 642L415 639L412 588Q304 601 247 601Q127 601 127 503Q127 448 158 428T274 393T396 350T434 251Q434 213 419 175T393 121Q429 93 429 24Q429 -140 245
-140Q189 -140 102 -128L73 -124L78 -73Q188 -88 243 -88Q371 -88 371 21Q371 71 341 87T224 118T96 164T56 265Q56 305 77 342T112 389Q68 422 68 501ZM153 367Q116 312 116 269T144 204T243 172T347 145Q355 153 364 187T374 244Q374 293 346 312T249 343T153
367Z" />
<glyph unicode="&#xa8;" glyph-name="dieresis" horiz-adv-x="228" d="M-8 627V707H51V627H-8ZM189 627V707H247V627H189Z" />
<glyph unicode="&#xa9;" glyph-name="copyright" horiz-adv-x="646" d="M211 164T137 242T62 434T136 626T323 704T509 626T583 433T510 242T324 164ZM102 530T102 434T165 271T322 203T480 270T544 433T481 597T323 665T165 598ZM325 278Q262 278 237 316T211
433T236 551T326 590Q365 590 391 584L401 581L399 535Q359 542 323 542T274 517T261 435T275 352T327 326L399 333L401 288Q362 278 325 278Z" />
<glyph unicode="&#xaa;" glyph-name="ordfeminine" horiz-adv-x="378" d="M290 564V428Q299 415 322 409L320 368Q272 368 248 392Q190 368 145 368T79 391T57 455Q57 532 145 538L238 544V566Q238 592 226 602T188 613L77 606L75 646Q144 659 192 659T265 638T290
564ZM154 499Q110 496 110 455T148 413Q182 413 224 426L238 431V504L154 499Z" />
<glyph unicode="&#xab;" glyph-name="guillemotleft" horiz-adv-x="523" d="M227 350L98 251L227 142V78L46 224V275L227 413V350ZM453 350L324 251L453 142V78L272 224V275L453 413V350Z" />
<glyph unicode="&#xac;" glyph-name="logicalnot" horiz-adv-x="560" d="M67 338H493V120H436V283H67V338Z" />
<glyph unicode="&#xae;" glyph-name="registered" horiz-adv-x="646" d="M211 164T137 242T62 434T136 626T322 704T509 626T583 433T510 242T324 164ZM102 530T102 434T165 271T322 203T480 270T544 433T481 597T323 665T165 598ZM264 394V283H216V583H320Q377
583 405 562T433 490Q433 419 379 400L438 283H387L330 394H264ZM264 542V435H331Q360 435 373 447T386 489T369 530T317 542H264Z" />
<glyph unicode="&#xaf;" glyph-name="overscore" horiz-adv-x="228" d="M-16 631V680H256V631H-16Z" />
<glyph unicode="&#xb0;" glyph-name="degree" horiz-adv-x="560" d="M140 503T140 565T179 666T280 705T380 666T419 565T381 465T280 427T179 465ZM185 609T185 565T211 495T280 469T350 495T377 565T351 635T281 662T211 636Z" />
<glyph unicode="&#xb1;" glyph-name="plusminus" horiz-adv-x="560" d="M57 298V354H250V484H307V354H503V298H307V165H250V298H57ZM57 98H503V42H57V98Z" />
<glyph unicode="&#xb2;" glyph-name="twosuperior" horiz-adv-x="280" d="M235 478H32V524L124 619Q151 646 163 665T176 707Q176 750 124 750L37 741L35 787Q91 799 134 799Q230 799 230 711Q230 677 216 653T168 596L99 526H235V478Z" />
<glyph unicode="&#xb3;" glyph-name="threesuperior" horiz-adv-x="280" d="M37 789Q93 799 141 799T213 780T238 717Q238 694 228 676Q214 651 196 643Q222 635 234 618T246 564Q246 468 143 468Q106 468 50 476L33 479L36 525Q92 517 142 517T192 565Q192 615
141 615H76V661H140Q156 661 170 676T184 712Q184 751 133 751Q94 751 54 745L40 743L37 789Z" />
<glyph unicode="&#xb4;" glyph-name="acute" horiz-adv-x="268" d="M31 640L238 737L260 685L50 598L31 640Z" />
<glyph unicode="&#xb5;" glyph-name="mu" horiz-adv-x="560" d="M410 500H469V0H410V37Q333 -10 259 -10T148 15V-225H89V500H148V240Q148 124 169 84T263 44Q298 44 335 54T391 76L410 86V500Z" />
<glyph unicode="&#xb6;" glyph-name="paragraph" horiz-adv-x="591" d="M415 0V642H285V0H230V334H223Q143 334 90 384T37 513T90 644T223 695H552V642H470V0H415Z" />
<glyph unicode="&#xb7;" glyph-name="middot" horiz-adv-x="207" d="M71 244V345H137V244H71Z" />
<glyph unicode="&#xb8;" glyph-name="cedilla" horiz-adv-x="263" d="M218 -127Q218 -211 129 -211L45 -205L47 -165Q88 -168 118 -168Q163 -168 163 -127Q163 -90 118 -90H71V1H109V-52Q167 -52 192 -67T218 -127Z" />
<glyph unicode="&#xb9;" glyph-name="onesuperior" horiz-adv-x="280" d="M188 790V478H135V731L62 681L37 721L138 790H188Z" />
<glyph unicode="&#xba;" glyph-name="ordmasculine" horiz-adv-x="370" d="M185 659Q249 659 280 624T312 515Q312 368 185 368Q56 368 56 513T185 659ZM146 418T185 418T240 440T257 514T241 587T186 609T129 588T112 515T129 441Z" />
<glyph unicode="&#xbb;" glyph-name="guillemotright" horiz-adv-x="523" d="M424 251L296 350V413L477 275V224L296 78V142L424 251ZM198 251L70 350V413L251 275V224L70 78V142L198 251Z" />
<glyph unicode="&#xbc;" glyph-name="onequarter" horiz-adv-x="531" d="M192 790V478H139V731L66 681L41 721L142 790H192ZM36 28L428 659L464 636L72 6L36 28ZM412 -100V-49H270V-3L346 212H404L326 0H412L416 88H465V0H496V-49H465V-100H412Z" />
<glyph unicode="&#xbd;" glyph-name="onehalf" horiz-adv-x="525" d="M197 790V478H144V731L71 681L46 721L147 790H197ZM34 28L426 659L462 636L70 6L34 28ZM479 -100H276V-54L368 41Q395 68 407 87T420 129Q420 172 368 172L281 163L279 209Q335 221 378 221Q474
221 474 133Q474 99 460 75T412 18L343 -52H479V-100Z" />
<glyph unicode="&#xbe;" glyph-name="threequarters" horiz-adv-x="547" d="M57 789Q113 799 161 799T233 780T258 717Q258 694 248 676Q234 651 216 643Q242 635 254 618T266 564Q266 468 163 468Q126 468 70 476L53 479L56 525Q112 517 162 517T212 565Q212
615 161 615H96V661H160Q176 661 190 676T204 712Q204 751 153 751Q114 751 74 745L60 743L57 789ZM54 28L446 659L482 636L90 6L54 28ZM430 -100V-49H288V-3L364 212H422L344 0H430L434 88H483V0H514V-49H483V-100H430Z" />
<glyph unicode="&#xbf;" glyph-name="questiondown" horiz-adv-x="443" d="M40 -44Q40 19 58 52T130 132T206 206T228 268V304H280Q289 279 289 247T265 182T188 105T118 32T101 -47T136 -124T246 -149Q287 -149 374 -130L402 -124L408 -175Q302 -204 241 -204Q140
-204 90 -167T40 -44ZM288 500V400H222V500H288Z" />
<glyph unicode="&#xc0;" glyph-name="Agrave" horiz-adv-x="594" d="M25 0L225 695H370L569 0H508L452 192H142L87 0H25ZM270 641L157 247H437L324 641H270ZM190 928L397 829L377 786L168 874L190 928Z" />
<glyph unicode="&#xc1;" glyph-name="Aacute" horiz-adv-x="594" d="M25 0L225 695H370L569 0H508L452 192H142L87 0H25ZM270 641L157 247H437L324 641H270ZM192 829L399 928L421 874L212 786L192 829Z" />
<glyph unicode="&#xc2;" glyph-name="Acircumflex" horiz-adv-x="594" d="M25 0L225 695H370L569 0H508L452 192H142L87 0H25ZM270 641L157 247H437L324 641H270ZM136 798L270 929H322L456 798H387L297 884L206 798H136Z" />
<glyph unicode="&#xc3;" glyph-name="Atilde" horiz-adv-x="594" d="M25 0L225 695H370L569 0H508L452 192H142L87 0H25ZM270 641L157 247H437L324 641H270ZM373 814Q353 814 292 842T218 871Q195 871 158 834L145 821L130 867Q177 923 215 923Q241 923 301 896T374
868Q393 868 429 902L441 914L456 869Q410 814 373 814Z" />
<glyph unicode="&#xc4;" glyph-name="Adieresis" horiz-adv-x="594" d="M25 0L225 695H370L569 0H508L452 192H142L87 0H25ZM270 641L157 247H437L324 641H270ZM167 819V899H226V819H167ZM368 819V899H426V819H368Z" />
<glyph unicode="&#xc5;" glyph-name="Aring" horiz-adv-x="594" d="M344 850T374 823T405 750T375 676L569 0H508L452 192H142L87 0H25L218 673Q185 700 185 748T215 823T295 850ZM270 641L157 247H437L324 641H270ZM232 750Q232 703 276 695H314Q358 703 358
750Q358 777 342 791T295 806T249 792T232 750Z" />
<glyph unicode="&#xc6;" glyph-name="AE" horiz-adv-x="877" d="M412 0V190H152L86 0H22L256 697H828V639H473V387H768V329H473V58H828V0H412ZM412 249V639H301L169 249H412Z" />
<glyph unicode="&#xc7;" glyph-name="Ccedilla" horiz-adv-x="544" d="M432 -127Q432 -211 343 -211L259 -205L261 -165Q302 -168 332 -168Q377 -168 377 -127Q377 -90 332 -90H285V-9Q152 -1 105 93Q81 141 72 200T62 338T68 470T90 569T134 644Q193 705 314
705Q397 705 502 684L499 630Q395 649 332 649T235 636T179 600T146 537Q126 469 126 367T133 215T160 123T219 64T327 46T499 65L502 11Q410 -9 323 -10V-52Q381 -52 406 -67T432 -127Z" />
<glyph unicode="&#xc8;" glyph-name="Egrave" horiz-adv-x="552" d="M87 0V695H504V639H149V381H444V326H149V55H504V0H87ZM199 928L406 829L386 786L177 874L199 928Z" />
<glyph unicode="&#xc9;" glyph-name="Eacute" horiz-adv-x="552" d="M87 0V695H504V639H149V381H444V326H149V55H504V0H87ZM182 829L389 928L411 874L202 786L182 829Z" />
<glyph unicode="&#xca;" glyph-name="Ecircumflex" horiz-adv-x="552" d="M87 0V695H504V639H149V381H444V326H149V55H504V0H87ZM132 798L266 929H318L452 798H383L293 884L202 798H132Z" />
<glyph unicode="&#xcb;" glyph-name="Edieresis" horiz-adv-x="552" d="M87 0V695H504V639H149V381H444V326H149V55H504V0H87ZM165 819V899H224V819H165ZM366 819V899H424V819H366Z" />
<glyph unicode="&#xcc;" glyph-name="Igrave" horiz-adv-x="236" d="M87 0V695H149V0H87ZM3 928L210 829L190 786L-19 874L3 928Z" />
<glyph unicode="&#xcd;" glyph-name="Iacute" horiz-adv-x="236" d="M87 0V695H149V0H87ZM14 829L221 928L243 874L34 786L14 829Z" />
<glyph unicode="&#xce;" glyph-name="Icircumflex" horiz-adv-x="236" d="M87 0V695H149V0H87ZM-47 798L87 929H139L273 798H204L114 884L23 798H-47Z" />
<glyph unicode="&#xcf;" glyph-name="Idieresis" horiz-adv-x="236" d="M87 0V695H149V0H87ZM-12 819V899H47V819H-12ZM189 819V899H247V819H189Z" />
<glyph unicode="&#xd0;" glyph-name="Eth" horiz-adv-x="649" d="M19 320V378H90V697H342Q590 697 590 359Q590 0 342 0H90V320H19ZM526 359Q526 639 342 639H151V378H316V320H151V58H342Q394 58 431 83T489 154Q526 237 526 359Z" />
<glyph unicode="&#xd1;" glyph-name="Ntilde" horiz-adv-x="672" d="M87 0V695H209L500 55H523V695H584V0H464L171 639H149V0H87ZM414 814Q394 814 333 842T258 871Q236 871 198 834L186 821L171 867Q218 923 256 923Q282 923 343 896T415 868Q434 868 470 902L482
914L497 869Q451 814 414 814Z" />
<glyph unicode="&#xd2;" glyph-name="Ograve" horiz-adv-x="662" d="M124 185T166 116T331 46T497 114T539 341T495 575T331 649Q207 649 164 569Q141 528 133 475T124 344Q124 185 166 116ZM603 156T545 73T332 -10T119 75T60 343T119 616T331 705T543 617T603
342ZM232 928L439 829L419 786L210 874L232 928Z" />
<glyph unicode="&#xd3;" glyph-name="Oacute" horiz-adv-x="662" d="M124 185T166 116T331 46T497 114T539 341T495 575T331 649Q207 649 164 569Q141 528 133 475T124 344Q124 185 166 116ZM603 156T545 73T332 -10T119 75T60 343T119 616T331 705T543 617T603
342ZM206 829L413 928L435 874L226 786L206 829Z" />
<glyph unicode="&#xd4;" glyph-name="Ocircumflex" horiz-adv-x="662" d="M124 185T166 116T331 46T497 114T539 341T495 575T331 649Q207 649 164 569Q141 528 133 475T124 344Q124 185 166 116ZM603 156T545 73T332 -10T119 75T60 343T119 616T331 705T543 617T603
342ZM171 798L305 929H357L491 798H422L332 884L241 798H171Z" />
<glyph unicode="&#xd5;" glyph-name="Otilde" horiz-adv-x="662" d="M124 185T166 116T331 46T497 114T539 341T495 575T331 649Q207 649 164 569Q141 528 133 475T124 344Q124 185 166 116ZM603 156T545 73T332 -10T119 75T60 343T119 616T331 705T543 617T603
342ZM408 814Q388 814 327 842T252 871Q230 871 192 834L180 821L165 867Q212 923 250 923Q276 923 337 896T409 868Q428 868 464 902L476 914L491 869Q445 814 408 814Z" />
<glyph unicode="&#xd6;" glyph-name="Odieresis" horiz-adv-x="662" d="M124 185T166 116T331 46T497 114T539 341T495 575T331 649Q207 649 164 569Q141 528 133 475T124 344Q124 185 166 116ZM603 156T545 73T332 -10T119 75T60 343T119 616T331 705T543 617T603
342ZM202 819V899H261V819H202ZM403 819V899H461V819H403Z" />
<glyph unicode="&#xd7;" glyph-name="multiply" horiz-adv-x="560" d="M114 456L280 288L446 456L485 417L317 251L485 85L446 45L280 213L114 46L75 85L242 251L75 416L114 456Z" />
<glyph unicode="&#xd8;" glyph-name="Oslash" horiz-adv-x="662" d="M331 -10Q260 -10 206 9L149 -114L102 -93L161 33Q106 73 83 148T60 344Q60 527 119 616T331 705Q410 705 464 681L518 796L565 777L507 654Q603 577 603 344Q603 156 545 73T331 -10ZM141 528T133
475T124 334T137 185T187 90L439 627Q395 649 332 649T227 630T164 569ZM331 46Q455 46 497 114T539 355T480 595L231 62Q270 46 331 46Z" />
<glyph unicode="&#xd9;" glyph-name="Ugrave" horiz-adv-x="642" d="M144 204Q144 46 317 46Q407 46 452 83T497 204V695H559V204Q559 91 498 41T320 -10T143 40T83 204V695H144V204ZM223 928L430 829L410 786L201 874L223 928Z" />
<glyph unicode="&#xda;" glyph-name="Uacute" horiz-adv-x="642" d="M144 204Q144 46 317 46Q407 46 452 83T497 204V695H559V204Q559 91 498 41T320 -10T143 40T83 204V695H144V204ZM205 829L412 928L434 874L225 786L205 829Z" />
<glyph unicode="&#xdb;" glyph-name="Ucircumflex" horiz-adv-x="642" d="M144 204Q144 46 317 46Q407 46 452 83T497 204V695H559V204Q559 91 498 41T320 -10T143 40T83 204V695H144V204ZM160 798L294 929H346L480 798H411L321 884L230 798H160Z" />
<glyph unicode="&#xdc;" glyph-name="Udieresis" horiz-adv-x="642" d="M144 204Q144 46 317 46Q407 46 452 83T497 204V695H559V204Q559 91 498 41T320 -10T143 40T83 204V695H144V204ZM191 819V899H250V819H191ZM392 819V899H450V819H392Z" />
<glyph unicode="&#xdd;" glyph-name="Yacute" horiz-adv-x="534" d="M298 0H236V294L13 695H82L267 358L451 695H521L298 294V0ZM175 829L382 928L404 874L195 786L175 829Z" />
<glyph unicode="&#xde;" glyph-name="Thorn" horiz-adv-x="600" d="M341 185Q494 185 494 363Q494 446 458 484T341 523H149V185H341ZM341 126H149V0H87V697H149V581H341Q452 581 504 528T557 362T504 188T341 126Z" />
<glyph unicode="&#xdf;" glyph-name="germandbls" horiz-adv-x="564" d="M134 0H75V551Q75 652 118 692T261 732T403 699T446 591Q446 539 428 510T371 463T320 436T308 411T324 383T405 338T498 273T526 180Q526 78 481 34T326 -10Q279 -10 222 0L201 3L204 55Q286
45 322 45Q401 45 432 75T463 161T441 241T354 297T267 351T246 407T264 459T320 495T370 532T383 594T357 657T261 677T163 649T134 541V0Z" />
<glyph unicode="&#xe0;" glyph-name="agrave" horiz-adv-x="499" d="M419 351V83Q423 46 484 39L481 -9Q404 -9 368 31Q274 -10 180 -10Q113 -10 78 28T43 138T78 244T190 287L360 304V351Q360 407 336 431T270 456Q206 456 104 444L73 441L70 489Q180 510 262
510T382 471T419 351ZM105 142Q105 41 188 41Q224 41 267 49T335 67L360 76V257L197 240Q148 236 127 212T105 142ZM147 737L354 640L335 598L125 685L147 737Z" />
<glyph unicode="&#xe1;" glyph-name="aacute" horiz-adv-x="499" d="M419 351V83Q423 46 484 39L481 -9Q404 -9 368 31Q274 -10 180 -10Q113 -10 78 28T43 138T78 244T190 287L360 304V351Q360 407 336 431T270 456Q206 456 104 444L73 441L70 489Q180 510 262
510T382 471T419 351ZM105 142Q105 41 188 41Q224 41 267 49T335 67L360 76V257L197 240Q148 236 127 212T105 142ZM123 640L330 737L352 685L142 598L123 640Z" />
<glyph unicode="&#xe2;" glyph-name="acircumflex" horiz-adv-x="499" d="M419 351V83Q423 46 484 39L481 -9Q404 -9 368 31Q274 -10 180 -10Q113 -10 78 28T43 138T78 244T190 287L360 304V351Q360 407 336 431T270 456Q206 456 104 444L73 441L70 489Q180 510
262 510T382 471T419 351ZM105 142Q105 41 188 41Q224 41 267 49T335 67L360 76V257L197 240Q148 236 127 212T105 142ZM98 595L220 732H262L385 595H322L242 687L161 595H98Z" />
<glyph unicode="&#xe3;" glyph-name="atilde" horiz-adv-x="499" d="M419 351V83Q423 46 484 39L481 -9Q404 -9 368 31Q274 -10 180 -10Q113 -10 78 28T43 138T78 244T190 287L360 304V351Q360 407 336 431T270 456Q206 456 104 444L73 441L70 489Q180 510 262
510T382 471T419 351ZM105 142Q105 41 188 41Q224 41 267 49T335 67L360 76V257L197 240Q148 236 127 212T105 142ZM311 619Q290 619 237 643T172 668Q148 668 110 638L97 627L82 667Q132 717 170 717Q191 717 244 693T310 669Q331 669 366 698L378 708L392 666Q347
619 311 619Z" />
<glyph unicode="&#xe4;" glyph-name="adieresis" horiz-adv-x="499" d="M419 351V83Q423 46 484 39L481 -9Q404 -9 368 31Q274 -10 180 -10Q113 -10 78 28T43 138T78 244T190 287L360 304V351Q360 407 336 431T270 456Q206 456 104 444L73 441L70 489Q180 510
262 510T382 471T419 351ZM105 142Q105 41 188 41Q224 41 267 49T335 67L360 76V257L197 240Q148 236 127 212T105 142ZM115 627V707H174V627H115ZM312 627V707H370V627H312Z" />
<glyph unicode="&#xe5;" glyph-name="aring" horiz-adv-x="499" d="M419 351V83Q423 46 484 39L481 -9Q404 -9 368 31Q274 -10 180 -10Q113 -10 78 28T43 138T78 244T190 287L360 304V351Q360 407 336 431T270 456Q206 456 104 444L73 441L70 489Q180 510 262
510T382 471T419 351ZM105 142Q105 41 188 41Q224 41 267 49T335 67L360 76V257L197 240Q148 236 127 212T105 142ZM210 546T181 575T152 646T181 718T252 747T324 718T353 647T324 575T253 546ZM228 705T212 688T195 647T211 605T252 587T293 604T310 646T294
688T253 705Z" />
<glyph unicode="&#xe6;" glyph-name="ae" horiz-adv-x="809" d="M559 45Q608 45 712 52L741 54L743 4Q631 -10 553 -10Q454 -10 407 46L373 31Q281 -10 176 -10Q43 -10 43 141Q43 221 83 250T225 291L360 304V349Q360 452 264 452Q198 452 105 444L74 442L72 496Q188
509 266 509Q374 509 402 428Q451 509 565 509Q664 509 713 453T762 273L759 225H419Q420 133 451 89T559 45ZM183 43Q272 43 381 85Q358 140 358 254L197 239Q149 234 127 212T105 142T125 69T183 43ZM419 275H701Q701 372 669 414T565 456Q419 456 419 275Z"
/>
<glyph unicode="&#xe7;" glyph-name="ccedilla" horiz-adv-x="433" d="M355 -127Q355 -211 266 -211L182 -205L184 -165Q225 -168 255 -168Q300 -168 300 -127Q300 -90 255 -90H208V-7Q120 4 87 64T54 260T101 453T261 510Q306 510 368 500L391 497L388 446Q309
456 271 456Q182 456 149 413T116 253T146 90T271 44L390 53L392 2Q303 -10 260 -10H246V-52Q304 -52 329 -67T355 -127Z" />
<glyph unicode="&#xe8;" glyph-name="egrave" horiz-adv-x="504" d="M406 50L436 53L438 4Q325 -10 247 -10Q139 -9 96 54T53 248Q53 510 259 510Q358 510 407 454T456 273L454 225H114Q114 133 145 89T253 44T406 50ZM114 275H396Q396 374 364 416T260 458T151
415T114 275ZM145 738L352 641L333 599L123 686L145 738Z" />
<glyph unicode="&#xe9;" glyph-name="eacute" horiz-adv-x="504" d="M406 50L436 53L438 4Q325 -10 247 -10Q139 -9 96 54T53 248Q53 510 259 510Q358 510 407 454T456 273L454 225H114Q114 133 145 89T253 44T406 50ZM114 275H396Q396 374 364 416T260 458T151
415T114 275ZM154 640L361 737L383 685L173 598L154 640Z" />
<glyph unicode="&#xea;" glyph-name="ecircumflex" horiz-adv-x="504" d="M406 50L436 53L438 4Q325 -10 247 -10Q139 -9 96 54T53 248Q53 510 259 510Q358 510 407 454T456 273L454 225H114Q114 133 145 89T253 44T406 50ZM114 275H396Q396 374 364 416T260 458T151
415T114 275ZM118 595L240 732H282L405 595H342L262 687L181 595H118Z" />
<glyph unicode="&#xeb;" glyph-name="edieresis" horiz-adv-x="504" d="M406 50L436 53L438 4Q325 -10 247 -10Q139 -9 96 54T53 248Q53 510 259 510Q358 510 407 454T456 273L454 225H114Q114 133 145 89T253 44T406 50ZM114 275H396Q396 374 364 416T260 458T151
415T114 275ZM128 627V707H187V627H128ZM325 627V707H383V627H325Z" />
<glyph unicode="&#xec;" glyph-name="igrave" horiz-adv-x="209" d="M75 0V500H134V0H75ZM-38 737L169 640L150 598L-60 685L-38 737Z" />
<glyph unicode="&#xed;" glyph-name="iacute" horiz-adv-x="209" d="M40 640L247 737L269 685L59 598L40 640ZM75 500H134V0H75V500Z" />
<glyph unicode="&#xee;" glyph-name="icircumflex" horiz-adv-x="209" d="M75 500H134V0H75V500ZM-40 595L82 732H124L247 595H184L104 687L23 595H-40Z" />
<glyph unicode="&#xef;" glyph-name="idieresis" horiz-adv-x="209" d="M75 500H134V0H75V500ZM-27 627V707H32V627H-27ZM170 627V707H228V627H170Z" />
<glyph unicode="&#xf0;" glyph-name="eth" horiz-adv-x="543" d="M326 648Q488 547 488 352T436 74T263 -9Q159 -9 101 48T43 208T98 369T251 428Q314 428 398 398L425 389Q418 530 276 614L156 534L127 573L227 640Q170 666 99 685L113 732Q208 710 278 675L380
743L409 704L326 648ZM426 334Q326 373 256 373T146 329T106 209T146 90T268 46T388 109T426 334Z" />
<glyph unicode="&#xf1;" glyph-name="ntilde" horiz-adv-x="533" d="M75 0V500H134V463L157 474Q180 486 221 498T297 510Q397 510 430 457T464 263Q464 263 464 0H404V260Q404 375 382 415T285 456T134 414V0H75ZM350 619Q329 619 276 643T210 668Q187 668 149
638L136 627L121 667Q171 717 209 717Q230 717 283 693T348 669Q370 669 405 698L417 708L431 666Q386 619 350 619Z" />
<glyph unicode="&#xf2;" glyph-name="ograve" horiz-adv-x="527" d="M54 392T101 451T263 510T425 451T473 251T430 50T264 -10T98 50T54 251ZM116 134T143 89T263 43T384 89T412 252T381 413T264 457T148 414T116 253ZM168 737L375 640L356 598L146 685L168 737Z" />
<glyph unicode="&#xf3;" glyph-name="oacute" horiz-adv-x="527" d="M378 510T425 451T473 251T430 50T264 -10T98 50T54 251T101 451T263 510ZM356 43T384 89T412 252T381 413T264 457T148 414T116 253T143 89T263 43ZM163 640L370 737L392 685L182 598L163 640Z" />
<glyph unicode="&#xf4;" glyph-name="ocircumflex" horiz-adv-x="527" d="M378 510T425 451T473 251T430 50T264 -10T98 50T54 251T101 451T263 510ZM356 43T384 89T412 252T381 413T264 457T148 414T116 253T143 89T263 43ZM119 595L241 732H283L406 595H343L263
687L182 595H119Z" />
<glyph unicode="&#xf5;" glyph-name="otilde" horiz-adv-x="527" d="M378 510T425 451T473 251T430 50T264 -10T98 50T54 251T101 451T263 510ZM356 43T384 89T412 252T381 413T264 457T148 414T116 253T143 89T263 43ZM337 619Q316 619 263 643T198 668Q174 668
136 638L123 627L108 667Q158 717 196 717Q217 717 270 693T336 669Q357 669 392 698L404 708L418 666Q373 619 337 619Z" />
<glyph unicode="&#xf6;" glyph-name="odieresis" horiz-adv-x="527" d="M378 510T425 451T473 251T430 50T264 -10T98 50T54 251T101 451T263 510ZM356 43T384 89T412 252T381 413T264 457T148 414T116 253T143 89T263 43ZM132 627V707H191V627H132ZM329 627V707H387V627H329Z"
/>
<glyph unicode="&#xf7;" glyph-name="divide" horiz-adv-x="560" d="M97 263V322H463V263H97ZM208 335V425H352V335H208ZM249 33V126H310V33H249Z" />
<glyph unicode="&#xf8;" glyph-name="oslash" horiz-adv-x="527" d="M264 510Q309 510 342 501L385 605L428 590L384 485Q473 436 473 257Q473 110 430 50T264 -10Q220 -10 185 -2L140 -113L98 -98L142 13Q93 38 74 96T54 257Q54 392 101 451T264 510ZM264 457Q179
457 148 414T116 273T126 130T166 65L322 450Q300 457 264 457ZM264 43Q356 43 384 89T412 264T362 432L205 49Q229 43 264 43Z" />
<glyph unicode="&#xf9;" glyph-name="ugrave" horiz-adv-x="525" d="M391 500H450V0H391V37Q314 -10 237 -10Q135 -10 103 42T70 239V500H129V240Q129 124 150 84T244 44Q279 44 316 54T372 76L391 86V500ZM140 737L347 640L328 598L118 685L140 737Z" />
<glyph unicode="&#xfa;" glyph-name="uacute" horiz-adv-x="525" d="M450 500V0H391V37L370 26Q348 14 310 2T237 -10Q135 -10 103 42T70 239Q70 239 70 500H129V240Q129 124 150 84T247 44T391 86V500H450ZM161 640L368 737L390 685L180 598L161 640Z" />
<glyph unicode="&#xfb;" glyph-name="ucircumflex" horiz-adv-x="525" d="M450 500V0H391V37L370 26Q348 14 310 2T237 -10Q135 -10 103 42T70 239Q70 239 70 500H129V240Q129 124 150 84T247 44T391 86V500H450ZM111 595L233 732H275L398 595H335L255 687L174 595H111Z" />
<glyph unicode="&#xfc;" glyph-name="udieresis" horiz-adv-x="525" d="M450 500V0H391V37L370 26Q348 14 310 2T237 -10Q135 -10 103 42T70 239Q70 239 70 500H129V240Q129 124 150 84T247 44T391 86V500H450ZM138 627V707H197V627H138ZM335 627V707H393V627H335Z" />
<glyph unicode="&#xfd;" glyph-name="yacute" horiz-adv-x="478" d="M27 500H88L221 52H257L391 500H452L236 -225H176L243 0H174L27 500ZM161 640L368 737L390 685L180 598L161 640Z" />
<glyph unicode="&#xfe;" glyph-name="thorn" horiz-adv-x="522" d="M237 43Q341 43 374 91T407 252T382 410T286 456Q252 456 214 448T155 430L134 422V49Q204 43 237 43ZM290 510Q390 510 429 453T468 253T420 51T241 -10L134 -3V-225H75V722H134V473Q213 510 290 510Z" />
<glyph unicode="&#xff;" glyph-name="ydieresis" horiz-adv-x="478" d="M27 500H88L221 52H257L391 500H452L236 -225H176L243 0H174L27 500ZM110 627V707H169V627H110ZM307 627V707H365V627H307Z" />
<glyph unicode="&#x2013;" glyph-name="endash" horiz-adv-x="636" d="M68 295H568V241H68V295Z" />
<glyph unicode="&#x2014;" glyph-name="emdash" horiz-adv-x="1136" d="M68 295H1068V241H68V295Z" />
<glyph unicode="&#x2018;" glyph-name="quoteleft" horiz-adv-x="209" d="M161 715L119 504H55L113 715H161Z" />
<glyph unicode="&#x2019;" glyph-name="quoteright" horiz-adv-x="207" d="M57 503L99 714H163L105 503H57Z" />
<glyph unicode="&#x201a;" glyph-name="quotesinglbase" horiz-adv-x="208" d="M105 56L84 -49H52L81 56H105Z" />
<glyph unicode="&#x201c;" glyph-name="quotedblleft" horiz-adv-x="355" d="M307 715L265 504H201L259 715H307ZM161 715L119 504H55L113 715H161Z" />
<glyph unicode="&#x201d;" glyph-name="quotedblright" horiz-adv-x="361" d="M57 504L99 715H163L105 504H57ZM211 504L253 715H317L259 504H211Z" />
<glyph unicode="&#x201e;" glyph-name="quotedblbase" horiz-adv-x="343" d="M135 111L93 -100H29L87 111H135ZM278 111L236 -100H172L230 111H278Z" />
<glyph unicode="&#x2022;" glyph-name="bullet" horiz-adv-x="478" d="M114 107V395H364V107H114Z" />
<glyph unicode="&#x2039;" glyph-name="guilsinglleft" horiz-adv-x="297" d="M227 350L98 251L227 142V78L46 224V275L227 413V350Z" />
<glyph unicode="&#x203a;" glyph-name="guilsinglright" horiz-adv-x="297" d="M198 254L70 352V415L251 277V226L70 80V145L198 254Z" />
</font>
</defs>
</svg>
